<?xml version="1.0" standalone="no"?>
<!DOCTYPE svg PUBLIC "-//W3C//DTD SVG 1.1//EN" "http://www.w3.org/Graphics/SVG/1.1/DTD/svg11.dtd">
<svg xmlns="http://www.w3.org/2000/svg">
<metadata>Copyright (C) 2016 by original authors @ fontello.com</metadata>
<defs>
<font id="ploticon" horiz-adv-x="1000" >
<font-face font-family="ploticon" font-weight="400" font-stretch="normal" units-per-em="1000" ascent="850" descent="-150" />
<missing-glyph horiz-adv-x="1000" />
<glyph glyph-name="undo" unicode="&#xe800;" d="m857 350q0-87-34-166t-91-137-137-92-166-34q-96 0-183 41t-147 114q-4 6-4 13t5 11l76 77q6 5 14 5 9-1 13-7 41-53 100-82t126-29q58 0 110 23t92 61 61 91 22 111-22 111-61 91-92 61-110 23q-55 0-105-20t-90-57l77-77q17-16 8-38-10-23-33-23h-250q-15 0-25 11t-11 25v250q0 24 22 33 22 10 39-8l72-72q60 57 137 88t159 31q87 0 166-34t137-92 91-137 34-166z" horiz-adv-x="857.1" />
<glyph glyph-name="home" unicode="&#xe801;" d="m786 296v-267q0-15-11-26t-25-10h-214v214h-143v-214h-214q-15 0-25 10t-11 26v267q0 1 0 2t0 2l321 264 321-264q1-1 1-4z m124 39l-34-41q-5-5-12-6h-2q-7 0-12 3l-386 322-386-322q-7-4-13-4-7 2-12 7l-35 41q-4 5-3 13t6 12l401 334q18 15 42 15t43-15l136-114v109q0 8 5 13t13 5h107q8 0 13-5t5-13v-227l122-102q5-5 6-12t-4-13z" horiz-adv-x="928.6" />
<glyph glyph-name="camera-retro" unicode="&#xe802;" d="m518 386q0 8-5 13t-13 5q-37 0-63-27t-26-63q0-8 5-13t13-5 12 5 5 13q0 23 16 38t38 16q8 0 13 5t5 13z m125-73q0-59-42-101t-101-42-101 42-42 101 42 101 101 42 101-42 42-101z m-572-320h858v71h-858v-71z m643 320q0 89-62 152t-152 62-151-62-63-152 63-151 151-63 152 63 62 151z m-571 358h214v72h-214v-72z m-72-107h858v143h-462l-36-71h-360v-72z m929 143v-714q0-30-21-51t-50-21h-858q-29 0-50 21t-21 51v714q0 30 21 51t50 21h858q29 0 50-21t21-51z" horiz-adv-x="1000" />
<glyph glyph-name="zoombox" unicode="&#xe803;" d="m1000-25l-250 251c40 63 63 138 63 218 0 224-182 406-407 406-224 0-406-182-406-406s183-406 407-406c80 0 155 22 218 62l250-250 125 125z m-812 250l0 438 437 0 0-438-437 0z m62 375l313 0 0-312-313 0 0 312z" horiz-adv-x="1000" />
<glyph glyph-name="pan" unicode="&#xe804;" d="m1000 350l-187 188 0-125-250 0 0 250 125 0-188 187-187-187 125 0 0-250-250 0 0 125-188-188 186-187 0 125 252 0 0-250-125 0 187-188 188 188-125 0 0 250 250 0 0-126 187 188z" horiz-adv-x="1000" />
<glyph glyph-name="zoom_plus" unicode="&#xe805;" d="m1 787l0-875 875 0 0 875-875 0z m687-500l-187 0 0-187-125 0 0 187-188 0 0 125 188 0 0 187 125 0 0-187 187 0 0-125z" horiz-adv-x="1000" />
<glyph glyph-name="zoom_minus" unicode="&#xe806;" d="m0 788l0-876 875 0 0 876-875 0z m688-500l-500 0 0 125 500 0 0-125z" horiz-adv-x="1000" />
<glyph glyph-name="autoscale" unicode="&#xe807;" d="m250 850l-187 0-63 0 0-62 0-188 63 0 0 188 187 0 0 62z m688 0l-188 0 0-62 188 0 0-188 62 0 0 188 0 62-62 0z m-875-938l0 188-63 0 0-188 0-62 63 0 187 0 0 62-187 0z m875 188l0-188-188 0 0-62 188 0 62 0 0 62 0 188-62 0z m-125 188l-1 0-93-94-156 156 156 156 92-93 2 0 0 250-250 0 0-2 93-92-156-156-156 156 94 92 0 2-250 0 0-250 0 0 93 93 157-156-157-156-93 94 0 0 0-250 250 0 0 0-94 93 156 157 156-157-93-93 0 0 250 0 0 250z" horiz-adv-x="1000" />
<glyph glyph-name="tooltip_basic" unicode="&#xe808;" d="m375 725l0 0-375-375 375-374 0-1 1125 0 0 750-1125 0z" horiz-adv-x="1500" />
<glyph glyph-name="tooltip_compare" unicode="&#xe809;" d="m187 786l0 2-187-188 188-187 0 0 937 0 0 373-938 0z m0-499l0 1-187-188 188-188 0 0 937 0 0 376-938-1z" horiz-adv-x="1125" />
<glyph glyph-name="plotlylogo" unicode="&#xe80a;" d="m0-10h182v-140h-182v140z m228 146h183v-286h-183v286z m225 714h182v-1000h-182v1000z m225-285h182v-715h-182v715z m225 142h183v-857h-183v857z m231-428h182v-429h-182v429z m225-291h183v-138h-183v138z" horiz-adv-x="1542" />
<glyph glyph-name="z-axis" unicode="&#xe80b;" d="m833 5l-17 108v41l-130-65 130-66c0 0 0 38 0 39 0-1 36-14 39-25 4-15-6-22-16-30-15-12-39-16-56-20-90-22-187-23-279-23-261 0-341 34-353 59 3 60 228 110 228 110-140-8-351-35-351-116 0-120 293-142 474-142 155 0 477 22 477 142 0 50-74 79-163 96z m-374 94c-58-5-99-21-99-40 0-24 65-43 144-43 79 0 143 19 143 43 0 19-42 34-98 40v216h87l-132 135-133-135h88v-216z m167 515h-136v1c16 16 31 34 46 52l84 109v54h-230v-71h124v-1c-16-17-28-32-44-51l-89-114v-51h245v72z" horiz-adv-x="1000" />
<glyph glyph-name="3d_rotate" unicode="&#xe80c;" d="m922 660c-5 4-9 7-14 11-359 263-580-31-580-31l-102 28 58-400c0 1 1 1 2 2 118 108 351 249 351 249s-62 27-100 42c88 83 222 183 347 122 16-8 30-17 44-27-2 1-4 2-6 4z m36-329c0 0 64 229-88 296-62 27-124 14-175-11 157-78 225-208 249-266 8-19 11-31 11-31 2 5 6 15 11 32-5-13-8-20-8-20z m-775-239c70-31 117-50 198-32-121 80-199 346-199 346l-96-15-58-12c0 0 55-226 155-287z m603 133l-317-139c0 0 4-4 19-14 7-5 24-15 24-15s-177-147-389 4c235-287 536-112 536-112l31-22 100 299-4-1z m-298-153c6-4 14-9 24-15 0 0-17 10-24 15z" horiz-adv-x="1000" />
<glyph glyph-name="camera" unicode="&#xe80d;" d="m500 450c-83 0-150-67-150-150 0-83 67-150 150-150 83 0 150 67 150 150 0 83-67 150-150 150z m400 150h-120c-16 0-34 13-39 29l-31 93c-6 15-23 28-40 28h-340c-16 0-34-13-39-28l-31-94c-6-15-23-28-40-28h-120c-55 0-100-45-100-100v-450c0-55 45-100 100-100h800c55 0 100 45 100 100v450c0 55-45 100-100 100z m-400-550c-138 0-250 112-250 250 0 138 112 250 250 250 138 0 250-112 250-250 0-138-112-250-250-250z m365 380c-19 0-35 16-35 35 0 19 16 35 35 35 19 0 35-16 35-35 0-19-16-35-35-35z" horiz-adv-x="1000" />
<glyph glyph-name="movie" unicode="&#xe80e;" d="m938 413l-188-125c0 37-17 71-44 94 64 38 107 107 107 187 0 121-98 219-219 219-121 0-219-98-219-219 0-61 25-117 66-156h-115c30 33 49 76 49 125 0 103-84 187-187 187s-188-84-188-187c0-57 26-107 65-141-38-22-65-62-65-109v-250c0-70 56-126 125-126h500c69 0 125 56 125 126l188-126c34 0 62 28 62 63v375c0 35-28 63-62 63z m-750 0c-69 0-125 56-125 125s56 125 125 125 125-56 125-125-56-125-125-125z m406-1c-87 0-157 70-157 157 0 86 70 156 157 156s156-70 156-156-70-157-156-157z" horiz-adv-x="1000" />
<glyph glyph-name="question" unicode="&#xe80f;" d="m500 82v107q0 8-5 13t-13 5h-107q-8 0-13-5t-5-13v-107q0-8 5-13t13-5h107q8 0 13 5t5 13z m143 375q0 49-31 91t-77 65-95 23q-136 0-207-119-9-14 4-24l74-55q4-4 10-4 9 0 14 7 30 38 48 51 19 14 48 14 27 0 48-15t21-33q0-21-11-34t-38-25q-35-16-65-48t-29-70v-20q0-8 5-13t13-5h107q8 0 13 5t5 13q0 10 12 27t30 28q18 10 28 16t25 19 25 27 16 34 7 45z m214-107q0-117-57-215t-156-156-215-58-216 58-155 156-58 215 58 215 155 156 216 58 215-58 156-156 57-215z" horiz-adv-x="857.1" />
<glyph glyph-name="disk" unicode="&#xe810;" d="m214-7h429v214h-429v-214z m500 0h72v500q0 8-6 21t-11 20l-157 156q-5 6-19 12t-22 5v-232q0-22-15-38t-38-16h-322q-22 0-37 16t-16 38v232h-72v-714h72v232q0 22 16 38t37 16h465q22 0 38-16t15-38v-232z m-214 518v178q0 8-5 13t-13 5h-107q-7 0-13-5t-5-13v-178q0-8 5-13t13-5h107q7 0 13 5t5 13z m357-18v-518q0-22-15-38t-38-16h-750q-23 0-38 16t-16 38v750q0 22 16 38t38 16h517q23 0 50-12t42-26l156-157q16-15 27-42t11-49z" horiz-adv-x="857.1" />
<glyph glyph-name="lasso" unicode="&#xe811;" d="m1018 538c-36 207-290 336-568 286-277-48-473-256-436-463 10-57 36-108 76-151-13-66 11-137 68-183 34-28 75-41 114-42l-55-70 0 0c-2-1-3-2-4-3-10-14-8-34 5-45 14-11 34-8 45 4 1 1 2 3 2 5l0 0 113 140c16 11 31 24 45 40 4 3 6 7 8 11 48-3 100 0 151 9 278 48 473 255 436 462z m-624-379c-80 14-149 48-197 96 42 42 109 47 156 9 33-26 47-66 41-105z m-187-74c-19 16-33 37-39 60 50-32 109-55 174-68-42-25-95-24-135 8z m360 75c-34-7-69-9-102-8 8 62-16 128-68 170-73 59-175 54-244-5-9 20-16 40-20 61-28 159 121 317 333 354s407-60 434-217c28-159-121-318-333-355z" horiz-adv-x="1031" />
<glyph glyph-name="selectbox" unicode="&#xe812;" d="m0 850l0-143 143 0 0 143-143 0z m286 0l0-143 143 0 0 143-143 0z m285 0l0-143 143 0 0 143-143 0z m286 0l0-143 143 0 0 143-143 0z m-857-286l0-143 143 0 0 143-143 0z m857 0l0-143 143 0 0 143-143 0z m-857-285l0-143 143 0 0 143-143 0z m857 0l0-143 143 0 0 143-143 0z m-857-286l0-143 143 0 0 143-143 0z m286 0l0-143 143 0 0 143-143 0z m285 0l0-143 143 0 0 143-143 0z m286 0l0-143 143 0 0 143-143 0z" horiz-adv-x="1000" />
<glyph glyph-name="spikeline" unicode="&#57408;" d="M512 409c0-57-46-104-103-104-57 0-104 47-104 104 0 57 47 103 104 103 57 0 103-46 103-103z m-327-39l92 0 0 92-92 0z m-185 0l92 0 0 92-92 0z m370-186l92 0 0 93-92 0z m0-184l92 0 0 92-92 0z"/>
</font>
</defs>
</svg>
